收藏本站扫码开通

套图久久-最强写真套图合集打包全集下载-Graphis-S-Cute-ROSI-秀人等

 找回密码
 马上注册

QQ登录

只需一步,快速开始

查看: 31|回复: 2

[其他] [动物王朝 第一季(国英双语)][MKV/90GB][4K完美中字DTS珍藏版][2018纪录片]

[复制链接]
百图阁图友
百图阁图友 发表于 2021-12-5 03:38:28 |阅读模式

点击上方获取邀请码注册baituge.com,100TB套图视频等你下载!

您需要 登录 才可以下载或查看,没有帐号?马上注册

x

                               
登录/注册后可看大图
◎译  名 王朝
◎片  名 Dynasties
◎年  代 2018
◎产  地 英国
◎类  别 纪录片
◎语  言 汉语普通话 / 英语
◎上映日期 2018-11-12(中国大陆)
◎IMDb链接 https://www.imdb.com/title/tt9130692
◎集  数 5
◎片  长 60分钟
◎主  演 戴维·阿滕伯勒 David Attenborough
◎简  介  
  西非撒哈拉沙漠边境,统治族群长达三年之久的黑猩猩戴维面临其他雄性的挑战,为了守住王权,他开始选择结盟。而当遭到围攻后,这位不死的王者又毅然决然踏上夺回王位的复仇之路。南极大陆,数千只帝企鹅爸爸团聚一起,与极其寒冷的永夜作抗争。他们等待新生命的出生,等待 爱人的归来。肯尼亚草原,雌狮查姆竭尽全力守护族群,在巨大的灾难面前,他必须面临生死存亡的考验。津巴布韦国家公园,垂老的三色狼泰特渐感力不从心,她对家族的控制力逐渐减弱,而她的女儿正在崛起,觊觎着母亲的皇位。印度,雌虎拉杰贝拉靠一己之力捕捉猎物,养育四个孩子,但是大自然从不因此对她慈悲半分。
  王朝是一个新的具有里程碑意义的系列。这个系列将记录世界上最具标志性的动物的故事,在世界最知名的地点,他们为了维系自己的王朝而努力奋斗着。在每一集里面,他们每个个体的故事都会通过激烈的、引人入胜的戏剧情节展开。
◎获奖:
第17届中国(广州)国际纪录片节:“金红棉”国际纪录片评优单元 优秀纪录片导演(斯蒂芬·莫斯)
第5届豆瓣电影年度榜单:评分最高的纪录剧集  


                               
登录/注册后可看大图



                               
登录/注册后可看大图



                               
登录/注册后可看大图


原盘提取,国语配音字幕调制的,豆瓣9.5高分BBC纪录片珍藏版!

General
Complete name                  : 动物王朝1-猩猩.mkv
Format                         : Matroska
Format version                 : Version 4
File size                      : 17.3 GiB
Duration                       : 52 min 59 s
Overall bit rate mode          : Variable
Overall bit rate               : 46.7 Mb/s
Movie name                     : Dynasties.S01E04.Painted.Wolf.2160p.BluRay.REMUX.HEVC.DTS-HD.MA.5.1-FGT
Encoded date                   : UTC 2021-01-22 14:24:09
Writing application            : mkvmerge v7.5.0 ('Glass Culture') 32bit built on Jan  4 2015 16:37:25
Writing library                : libebml v1.3.1 + libmatroska v1.4.2
Cover                          : Yes
Attachments                    : cover_land.jpg / small_cover.jpg / small_cover_land.jpg / cover.jpg

Video
ID                             : 1
Format                         : HEVC
Format/Info                    : High Efficiency Video Coding
Format profile                 : Main [email protected]@High
HDR format                     : SMPTE ST 2086, HDR10 compatible
Codec ID                       : V_MPEGH/ISO/HEVC
Duration                       : 52 min 59 s
Bit rate                       : 43.0 Mb/s
Width                          : 3 840 pixels
Height                         : 2 160 pixels
Display aspect ratio           : 16:9
Frame rate mode                : Constant
Frame rate                     : 23.976 (24000/1001) FPS
Color space                    : YUV
Chroma subsampling             : 4:2:0 (Type 2)
Bit depth                      : 10 bits
Bits/(Pixel*Frame)             : 0.216
Stream size                    : 15.9 GiB (92%)
Title                          : Dynasties.S01E01.Chimpanzee.2160p.BluRay.REMUX.HEVC.DTS-HD.MA.5.1-FGT
Default                        : Yes
Forced                         : No
Color range                    : Limited
Color primaries                : BT.2020
Transfer characteristics       : PQ
Matrix coefficients            : BT.2020 non-constant
Mastering display color primar : Display P3
Mastering display luminance    : min: 0.0050 cd/m2, max: 1000 cd/m2
Maximum Content Light Level    : 1019 cd/m2
Maximum Frame-Average Light Le : 278 cd/m2

Audio #1
ID                             : 2
Format                         : DTS
Format/Info                    : Digital Theater Systems
Codec ID                       : A_DTS
Duration                       : 52 min 59 s
Bit rate mode                  : Constant
Bit rate                       : 1 536 kb/s
Channel(s)                     : 6 channels
Channel layout                 : C L R Ls Rs LFE
Sampling rate                  : 48.0 kHz
Frame rate                     : 93.750 FPS (512 SPF)
Bit depth                      : 16 bits
Compression mode               : Lossy
Stream size                    : 582 MiB (3%)
Title                          : 国语解说
Language                       : Chinese
Default                        : Yes
Forced                         : No

Audio #2
ID                             : 3
Format                         : DTS XLL
Format/Info                    : Digital Theater Systems
Commercial name                : DTS-HD Master Audio
Codec ID                       : A_DTS
Duration                       : 52 min 59 s
Bit rate mode                  : Variable
Bit rate                       : 2 167 kb/s
Channel(s)                     : 6 channels
Channel layout                 : C L R Ls Rs LFE
Sampling rate                  : 48.0 kHz
Frame rate                     : 93.750 FPS (512 SPF)
Bit depth                      : 16 bits
Compression mode               : Lossless
Stream size                    : 821 MiB (5%)
Title                          : Dynasties.S01E01.Chimpanzee.2160p.BluRay.REMUX.HEVC.DTS-HD.MA.5.1-FGT
Language                       : English
Default                        : No
Forced                         : No

Text
ID                             : 4
Format                         : UTF-8
Codec ID                       : S_TEXT/UTF8
Codec ID/Info                  : UTF-8 Plain Text
Duration                       : 52 min 2 s
Bit rate                       : 19 b/s
Count of elements              : 244
Stream size                    : 7.28 KiB (0%)
Title                          : 中字
Language                       : Chinese
Default                        : Yes
Forced                         : No

Menu
00:00:00.000                   : :Chapter 1
00:10:34.300                   : :Chapter 2
00:20:53.961                   : :Chapter 3
00:31:33.558                   : :Chapter 4
00:41:35.451                   : :Chapter 5
00:51:56.571                   : :Chapter 6



百度网盘下载(获取密码前先测试链接是否有效
温馨提示:BBC豆瓣超高分纪录片,9.5高分原盘收集配音字幕调制的,全5集,4K高清可作为收藏版,需要的朋友速秒,过期不补。

游客,如果您要查看本帖隐藏内容请回复







回复

使用道具 举报

排名
430
昨日变化

0

主题

518

帖子

953

积分

禁止访问

积分
953
发表于 2021-12-5 20:14:41 | 显示全部楼层
提示: 作者被禁止或删除 内容自动屏蔽
百图阁永久域名baituge.com 请收藏 此地址永久有效!
会员开通 http://taotu99.vip/vip.html
默认解压密码:www.taotufabu.com (解压密码即为地址发布页)
回复 支持 反对

使用道具 举报

排名
1400
昨日变化
1

0

主题

362

帖子

3341

积分

年度钻石VIP

Rank: 8Rank: 8Rank: 8Rank: 8

积分
3341
发表于 2022-1-5 19:03:18 | 显示全部楼层
好看哦,喜欢支持下
百图阁永久域名baituge.com 请收藏 此地址永久有效!
会员开通 http://taotu99.vip/vip.html
默认解压密码:www.taotufabu.com (解压密码即为地址发布页)
回复 支持 反对

使用道具 举报

 点击右侧快捷回复【勿回复无意义内容 违者封禁】  【taotufabu.com】
您需要登录后才可以回帖 登录 | 马上注册

本版积分规则

关闭

站长推荐上一条 /1 下一条

点击上方获取邀请码即可注册!登陆后可浏览所有秘密板块!100T资源等你来下载!地址发布页taotufabu.com
 马上注册
找回密码

QQ|Archiver|手机版|套图久久-最强套图下载站  |网站地图  

GMT+8, 2022-1-29 04:12 , Processed in 0.143482 second(s), 36 queries .

Powered by Discuz! X3.2

© 2015-2020 套图发布

快速回复 返回顶部 返回列表